当前位置:首页  »  动画  »  吉诺密欧与朱丽叶2
吉诺密欧与朱丽叶2海报/剧照欣赏
  • 片名:

    吉诺密欧与朱丽叶2

  • 状态:[英语无字]
    加载中
  • 导演:
  • 主演:
  • 分类:动画 欧美
  • 年份:2018 
  • 地区:欧美
  • 语言:英语 
  • Tag :
  • 更新时间:2018-06-01
【电影观看小贴士】:[TS/TC:抢先非清晰版] [DVD:普通清晰版] [BD:蓝光高清无水印版] [HD:1080/720P高清版] - 其中,BD和HD为高清版

BT下载

(需要安装BT下载工具|注下面如果没有下载地址那就是网盘下载在最下面有下载地址)

吉诺密欧与朱丽叶2相关影片

吉诺密欧与朱丽叶2剧情介绍

    Sherlock.Gnomes.2018.DVDRip.XviD.AC3-EVO

    ◎译  名 吉诺密欧与朱丽叶2:夏洛克·糯尔摩斯/吉诺密欧与朱丽叶2/糯尔摩斯(台)/神探福尔摩侏(港)

    ◎片  名 Sherlock Gnomes

    ◎年  代 2018

    ◎产  地 英国/美国

    ◎类  别 喜剧/动画/冒险

    ◎语  言 英语

    ◎上映日期 2018-03-23(美国)/2018-05-11(英国)/2018-07-06(中国大陆)

    ◎IMDb评分  4.7/10 from 2,418 users

    ◎IMDb链接  http://www.imdb.com/title/tt2296777/

    ◎豆瓣评分 6.5/10 from 143 users

    ◎豆瓣链接 https://movie.douban.com/subject/26660063/

    ◎BT之家整理 http://www.btbtt.co 

    ◎片  长 86分钟

    ◎导  演 约翰·斯蒂文森 John Stevenson

    ◎主  演 詹姆斯·麦卡沃伊 James McAvoy

          艾米莉·布朗特 Emily Blunt

          约翰尼·德普 Johnny Depp

          切瓦特·埃加福特 Chiwetel Ejiofor

          玛丽·布莱姬 Mary J. Blige

          迈克尔·凯恩 Michael Caine

          玛吉·史密斯 Maggie Smith

          凯利·阿斯博瑞 Kelly Asbury

          德克斯特·弗莱彻 Dexter Fletcher

          马特·卢卡斯 Matt Lucas

          斯戴芬·莫昌特 Stephen Merchant

          奥兹·奥斯朋 Ozzy Osbourne

          罗莎莉·克雷格 Rosalie Craig

          詹米·德米特鲁 Jamie Demetriou

          史蒂夫·汉密尔顿·肖 Steve Hamilton Shaw

          吴汉章 James Hong

          阿什利·詹森 Ashley Jensen

          斯蒂芬·怀特 Stephen Wight

          朱丽·沃特斯 Julie Walters

          理查德·威尔逊 Richard Wilson


    ◎简  介


      备受喜爱的花园装饰小矮人糯米欧(詹姆斯·麦卡沃伊 James McAvoy 配音)和茱丽叶(艾米莉·布朗特 Emily Blunt 配音)回来了,这回他们将前往伦敦展开全新的冒险旅程。当糯米欧和茱丽叶第一次和家人朋友来到这个城市的时候,他们最担心的就是新的花园能否及时在春天的来临前准备好,但是他们很快就发现有人到处在绑架小矮人。有天当两人回到家时,发现他们花园裡的小矮人们全都消失了!唯一能帮助他们的就是一个名叫糯尔摩斯(约翰尼·德普 Johnny Depp 配音)的小矮人。这位誓言保护全伦敦的花园装饰小矮人的名侦探和他的搭档华生(切瓦特·埃加福特 Chiwetel Ejiofor 配音)开始调查这个案件。这个谜团将会引领他们前往一个新的冒险旅程!他们将遇见很多前所未见的装饰角色,并探索城市未被发现的一面。


    Video
    ID                                       : 0
    Format                                   : MPEG-4 Visual
    Format profile                           : Simple@L3
    Format settings, BVOP                    : No
    Format settings, QPel                    : No
    Format settings, GMC                     : No warppoints
    Format settings, Matrix                  : Default (H.263)
    Codec ID                                 : XVID
    Codec ID/Hint                            : XviD
    Duration                                 : 1 h 26 min
    Source duration                          : 1 h 26 min
    Bit rate                                 : 1 526 kb/s
    Width                                    : 720 pixels
    Height                                   : 304 pixels
    Display aspect ratio                     : 2.35:1
    Frame rate                               : 23.976 (24000/1001) FPS
    Color space                              : YUV
    Chroma subsampling                       : 4:2:0
    Bit depth                                : 8 bits
    Scan type                                : Progressive
    Compression mode                         : Lossy
    Bits/(Pixel*Frame)                       : 0.291
    Stream size                              : 942 MiB (77%)
    Writing library                          : XviD 1.1.2 (UTC 2006-11-01)

    Audio
    ID                                       : 1
    Format                                   : AC-3
    Format/Info                              : Audio Coding 3
    Codec ID                                 : 2000
    Duration                                 : 1 h 26 min
    Bit rate mode                            : Constant
    Bit rate                                 : 448 kb/s
    Channel(s)                               : 6 channels
    Channel positions                        : Front: L C R, Side: L R, LFE
    Sampling rate                            : 48.0 kHz
    Frame rate                               : 31.250 FPS (1536 SPF)
    Bit depth                                : 16 bits
    Compression mode                         : Lossy
    Stream size                              : 277 MiB (23%)
    Alignment                                : Aligned on interleaves
    Interleave, duration                     : 32  ms (0.77 video frame)
    Service kind                             : Complete Main





200

0条影片评论 昵称: 验证码:  

暂无评论,快来抢沙发吧!

Back to Top